[РЕШЕНО] pv к ffmpeg

В этой теме задаем любые интересующие вопросы про Linux
Ответить
Серый
Сообщения: 844
Зарегистрирован: 27 сен 2012, 19:20
Темы: 102
Статус: Не в сети

[РЕШЕНО] pv к ffmpeg

Сообщение Серый » 12 фев 2013, 20:23

Наткнулся на интересный вопрос. Порекомендовал pv. Но решить окончательно сам не смог. Вот пример с ffmpeg:

Код: Выделить всё

ffmpeg -i 1.mp4 2.mpg
Пробовал разные варианты - не получается вывести прогресс бар выполнения.
Без pv команда отрабатывает так:

Код: Выделить всё

seryi@seryi-laptop:~/exp$ ls -lh
total 14M
-rw-r--r-- 1 seryi seryi 14M 2013-02-12 20:11 1.mp4

Код: Выделить всё

seryi@seryi-laptop:~/exp$ ffmpeg -i 1.mp4 2.mpg
FFmpeg version 0.5-svn17737+3:0.svn20090303-1ubuntu6, Copyright (c) 2000-2009 Fabrice Bellard, et al.
  configuration: --enable-gpl --enable-postproc --enable-swscale --enable-x11grab --extra-version=svn17737+3:0.svn20090303-1ubuntu6 --prefix=/usr --enable-avfilter --enable-avfilter-lavf --enable-libgsm --enable-libschroedinger --enable-libspeex --enable-libtheora --enable-libvorbis --enable-pthreads --disable-stripping --disable-vhook --enable-libdc1394 --disable-armv5te --disable-armv6 --disable-armv6t2 --disable-armvfp --disable-neon --disable-altivec --disable-vis --enable-shared --disable-static
  libavutil     49.15. 0 / 49.15. 0
  libavcodec    52.20. 0 / 52.20. 0
  libavformat   52.31. 0 / 52.31. 0
  libavdevice   52. 1. 0 / 52. 1. 0
  libavfilter    0. 4. 0 /  0. 4. 0
  libswscale     0. 7. 1 /  0. 7. 1
  libpostproc   51. 2. 0 / 51. 2. 0
  built on Apr 10 2009 23:18:41, gcc: 4.3.3

Seems stream 0 codec frame rate differs from container frame rate: 50.00 (50/1) -> 25.00 (25/1)
Input #0, mov,mp4,m4a,3gp,3g2,mj2, from '1.mp4':
  Duration: 00:07:22.60, start: 0.000000, bitrate: 248 kb/s
    Stream #0.0(und): Video: h264, yuv420p, 480x360, 25 tbr, 25 tbn, 50 tbc
    Stream #0.1(und): Audio: aac, 44100 Hz, stereo, s16
Output #0, mpeg, to '2.mpg':
    Stream #0.0(und): Video: mpeg1video, yuv420p, 480x360, q=2-31, 200 kb/s, 90k tbn, 25 tbc
    Stream #0.1(und): Audio: mp2, 44100 Hz, stereo, s16, 64 kb/s
Stream mapping:
  Stream #0.0 -> #0.0
  Stream #0.1 -> #0.1
Press [q] to stop encoding
frame=11065 fps= 38 q=24.8 Lsize=   14816kB time=442.51 bitrate= 274.3kbits/s    
video:11254kB audio:3457kB global headers:0kB muxing overhead 0.713564%

Код: Выделить всё

seryi@seryi-laptop:~/exp$ ls -lh
total 28M
-rw-r--r-- 1 seryi seryi 14M 2013-02-12 20:11 1.mp4
-rw-r--r-- 1 seryi seryi 15M 2013-02-12 20:17 2.mpg
seryi@seryi-laptop:~/exp$
Прикрутить pv к ffmpeg реально?

Аватара пользователя
ZEN
Администратор
Сообщения: 1362
Зарегистрирован: 27 сен 2012, 18:23
Темы: 208
Откуда: Украина, Одесса
Статус: Не в сети

Re: pv

Сообщение ZEN » 13 фев 2013, 18:46

pv вряд ли получится, но прогрессбар прикрутим.
бог создал труд и обезьяну
чтоб получился человек
а вот пингвина он не трогал
тот сразу вышел хорошо

Аватара пользователя
ZEN
Администратор
Сообщения: 1362
Зарегистрирован: 27 сен 2012, 18:23
Темы: 208
Откуда: Украина, Одесса
Статус: Не в сети

Re: pv к ffmpeg

Сообщение ZEN » 15 фев 2013, 15:15

Как и обещал, написал черновик прогресс-бара для ffmpeg в терминале.
бог создал труд и обезьяну
чтоб получился человек
а вот пингвина он не трогал
тот сразу вышел хорошо

Ответить

Кто сейчас на конференции

Сейчас этот форум просматривают: нет зарегистрированных пользователей и 0 гостей